<?xml version="1.0" standalone="no"?>
<!DOCTYPE svg PUBLIC "-//W3C//DTD SVG 1.1//EN" "http://www.w3.org/Graphics/SVG/1.1/DTD/svg11.dtd" >
<svg xmlns="http://www.w3.org/2000/svg">
<metadata></metadata>
<defs>
<font id="zona_proregular" horiz-adv-x="1509" >
<font-face units-per-em="2048" ascent="1690" descent="-358" />
<missing-glyph horiz-adv-x="659" />
<glyph unicode="&#xfb01;" horiz-adv-x="1228" d="M-43 -233q24 -3 59 -3q108 0 161.5 61t53.5 195v947h-186v141h186v80q0 90 25.5 158.5t63.5 107t90.5 62t97 31t92.5 7.5q114 0 172 -20v-129q-77 14 -151 14q-126 0 -173 -65t-47 -193v-53h668v-1108h-172v967h-496v-1016q0 -159 -90 -246.5t-229 -87.5q-59 0 -125 12 v138zM877 1399q0 44 31 74t75 30q45 0 76 -30t31 -74t-31.5 -75.5t-75.5 -31.5t-75 31.5t-31 75.5z" />
<glyph unicode="&#xfb02;" horiz-adv-x="1267" d="M-43 -236q7 0 27 -1t32 -1q108 0 161.5 62t53.5 196v947h-186v141h186q0 448 445 448q200 0 317 -109.5t117 -293.5v-1153h-172v1112q0 165 -69 234t-193 69q-152 0 -213.5 -72t-61.5 -235h355v-141h-355v-1016q0 -86 -28 -151.5t-77 -104t-110 -57.5t-133 -19 q-21 0 -55.5 4t-40.5 4v137z" />
<glyph unicode="&#xfb03;" horiz-adv-x="2000" d="M-43 -233q24 -3 59 -3q108 0 161.5 61t53.5 195v947h-186v141h186v55q0 340 355 340q98 0 186 -28v-129q-94 16 -176 16q-106 0 -150.5 -50.5t-44.5 -160.5v-43h586v78q0 89 19.5 155.5t50.5 106t78.5 63.5t96 32.5t109.5 8.5q95 0 189 -28v-129q-82 14 -152 14 q-130 0 -175.5 -60.5t-45.5 -191.5v-49h684v-1108h-172v967h-512v-981q0 -159 -90 -245.5t-229 -86.5q-70 0 -125 10v137q18 -2 59 -2q108 0 161.5 61t53.5 195v912h-586v-1016q0 -159 -90 -246.5t-229 -87.5q-59 0 -125 12v138zM1649 1399q0 44 31 74t75 30q45 0 76 -30 t31 -74t-31.5 -75.5t-75.5 -31.5t-75 31.5t-31 75.5z" />
<glyph unicode="&#xfb04;" horiz-adv-x="2025" d="M-43 -236q7 0 27 -1t32 -1q108 0 161.5 62t53.5 196v947h-186v141h186v66q0 159 89.5 246t228.5 87q123 0 223 -32v-129q-94 16 -176 16q-92 0 -143.5 -49.5t-51.5 -145.5v-59h586v49q0 184 118.5 290.5t326.5 106.5q84 0 159.5 -23.5t138 -69.5t99.5 -125.5t37 -182.5 v-1153h-172v1112q0 154 -70.5 227.5t-191.5 73.5q-123 0 -199 -63.5t-76 -194.5v-47h354v-141h-354v-981q0 -159 -90 -246.5t-229 -87.5q-22 0 -53 2.5t-51 5.5l-21 2v139q36 -4 59 -4q108 0 161.5 62t53.5 196v912h-586v-1016q0 -159 -90 -246.5t-229 -87.5q-22 0 -53 2.5 t-51 4.5l-21 3v137z" />
<glyph horiz-adv-x="0" />
<glyph horiz-adv-x="682" />
<glyph unicode=" "  horiz-adv-x="659" />
<glyph unicode="&#x09;" horiz-adv-x="659" />
<glyph unicode="&#xa0;" horiz-adv-x="659" />
<glyph unicode="!" horiz-adv-x="464" d="M129 94q0 44 31.5 75.5t75.5 31.5t75 -31.5t31 -75.5t-31 -75t-75 -31t-75.5 31t-31.5 75zM145 1442h177l-31 -1028h-115z" />
<glyph unicode="&#x22;" horiz-adv-x="712" d="M72 854l37 580h186l-131 -580h-92zM422 854l37 580h186l-131 -580h-92z" />
<glyph unicode="#" horiz-adv-x="1392" d="M61 387v141h277l70 406h-281v141h305l55 330h131l-57 -330h371l55 330h129l-55 -330h272v-141h-295l-69 -406h297v-141h-322l-65 -381h-129l63 381h-369l-63 -381h-131l65 381h-254zM469 528h369l69 406h-368z" />
<glyph unicode="$" horiz-adv-x="1312" d="M109 117l67 135q131 -65 223.5 -88.5t218.5 -28.5v518q-65 16 -114.5 30.5t-103 35t-92.5 42.5t-76 52.5t-59.5 65.5t-36 80t-13.5 98q0 174 134 285.5t361 115.5v82h93v-84q255 -19 446 -110l-74 -140q-70 36 -172 61t-200 33v-501q95 -23 164 -44.5t137 -55.5 t110.5 -74.5t68.5 -99.5t26 -132q0 -185 -137.5 -293t-368.5 -116v-129h-93v129q-148 3 -251 29.5t-258 103.5zM301 1067q0 -49 23 -87.5t68.5 -67t98 -49t127.5 -40.5v484q-148 -3 -232.5 -69t-84.5 -171zM711 135q151 5 239 69t88 177q0 42 -17 77t-44 59.5t-71.5 46 t-88.5 36.5t-106 31v-496z" />
<glyph unicode="%" horiz-adv-x="1841" d="M90 1057q0 183 103 291t258 108q156 0 259 -107.5t103 -291.5q0 -183 -103.5 -291.5t-258.5 -108.5q-154 0 -257.5 109t-103.5 291zM209 1057q0 -127 69.5 -205t172.5 -78q104 0 173.5 77.5t69.5 205.5q0 129 -69.5 205.5t-173.5 76.5q-103 0 -172.5 -77t-69.5 -205z M360 0l990 1436h131l-989 -1436h-132zM1028 387q0 183 103.5 290t259.5 107q155 0 257.5 -107t102.5 -290q0 -184 -103 -291.5t-257 -107.5q-156 0 -259.5 107.5t-103.5 291.5zM1147 387q0 -127 70 -205t174 -78q102 0 171.5 78t69.5 205t-69.5 205t-171.5 78 q-104 0 -174 -78t-70 -205z" />
<glyph unicode="&#x26;" horiz-adv-x="1398" d="M90 371q0 253 320 385q-86 89 -127 165.5t-41 172.5q0 156 105 257t267 101q181 0 282 -102t101 -248q0 -77 -33.5 -148t-114 -138t-202.5 -111l352 -345q102 106 218 293l124 -43q-3 -4 -24.5 -39.5t-40 -64t-47.5 -71t-63 -86t-70 -83.5l188 -180l-104 -96l-181 176 q-209 -176 -411 -176q-236 0 -367 106.5t-131 274.5zM260 377q0 -104 84.5 -177t243.5 -73q161 0 317 135l-399 389q-246 -99 -246 -274zM389 1090q0 -45 12 -84.5t42 -80t48.5 -61.5t63.5 -67q152 54 225.5 126t73.5 169q0 96 -62.5 164.5t-177.5 68.5q-99 0 -162 -70.5 t-63 -164.5z" />
<glyph unicode="'" horiz-adv-x="423" d="M104 854l35 580h191l-131 -580h-95z" />
<glyph unicode="(" horiz-adv-x="819" d="M113 618q0 280 153 499.5t428 359.5l58 -101q-226 -128 -351 -321.5t-125 -436.5t125 -435t351 -320l-58 -101q-275 141 -428 358.5t-153 497.5z" />
<glyph unicode=")" horiz-adv-x="819" d="M68 -137q227 128 351 319.5t124 435.5t-124.5 437.5t-350.5 320.5l59 101q273 -141 426.5 -360t153.5 -499t-153 -497.5t-427 -358.5z" />
<glyph unicode="*" horiz-adv-x="845" d="M92 1206l49 86l248 -157l-12 292h98l-12 -292l246 157l49 -86l-258 -135l260 -133l-51 -86l-246 156l12 -291h-98l12 291l-248 -156l-47 86l258 133z" />
<glyph unicode="+" horiz-adv-x="1310" d="M145 690v141h443v441h139v-441h442v-141h-442v-440h-139v440h-443z" />
<glyph unicode="," horiz-adv-x="391" d="M6 -186q54 8 109.5 54t62.5 122q-39 5 -65.5 34.5t-26.5 71.5q0 43 31.5 74t72.5 31q17 0 33.5 -5.5t34.5 -18.5t29.5 -42t11.5 -69q0 -85 -27 -151t-69 -102t-85.5 -54t-84.5 -19z" />
<glyph unicode="-" horiz-adv-x="835" d="M94 608v144h647v-144h-647z" />
<glyph unicode="." horiz-adv-x="376" d="M80 94q0 44 31 75.5t75 31.5t75.5 -31.5t31.5 -75.5t-31.5 -75t-75.5 -31t-75 31t-31 75z" />
<glyph unicode="/" horiz-adv-x="942" d="M-61 -262l907 1896h147l-907 -1896h-147z" />
<glyph unicode="0" horiz-adv-x="1495" d="M94 721q0 169 52 309t141.5 232t208.5 142t254 50t254 -50t208.5 -142t141 -232t51.5 -309t-51.5 -309t-141 -232t-208.5 -142t-254 -50t-254 50t-208.5 142t-141.5 232t-52 309zM264 721q0 -134 38.5 -245t105 -184t154.5 -113t188 -40t188 40t154 113t104.5 184 t38.5 245t-38.5 245t-104.5 184t-154 113t-188 40t-188 -40t-154.5 -113t-105 -184t-38.5 -245z" />
<glyph unicode="1" horiz-adv-x="802" d="M59 1350l424 94h97v-1444h-177v1278l-309 -70z" />
<glyph unicode="2" horiz-adv-x="1277" d="M94 0v72q64 82 151 152.5t170.5 119.5t172 96t162.5 92t133.5 97.5t93 122.5t33.5 157q0 162 -112.5 274.5t-266.5 112.5q-97 0 -182.5 -45.5t-141.5 -135.5t-57 -204v-22h-156v33q0 150 74.5 273.5t197.5 192t267 68.5q142 0 265.5 -70t198 -194t74.5 -272 q0 -111 -38 -203t-95.5 -153.5t-142 -121t-162 -99t-171 -93.5t-154.5 -100h770v-150h-1084z" />
<glyph unicode="3" horiz-adv-x="1259" d="M104 80l66 137q109 -46 209 -63t235 -17q179 0 287.5 83t108.5 222q0 54 -22 104t-67 95t-126.5 73t-188.5 29h-69l-33 72l387 479h-746v150h1000v-84l-406 -506q199 -19 320 -130.5t121 -279.5q0 -213 -155.5 -335.5t-414.5 -122.5q-163 0 -273 19.5t-233 74.5z" />
<glyph unicode="4" horiz-adv-x="1349" d="M63 449l861 995h133v-930h219v-147h-219v-367h-172v367h-787zM313 514h572v664z" />
<glyph unicode="5" horiz-adv-x="1267" d="M106 74l62 137q108 -42 211.5 -58t241.5 -16q178 0 286.5 86.5t108.5 231.5q0 144 -93.5 234.5t-273.5 90.5q-95 0 -217.5 -18t-181.5 -39l-78 45l8 676h940v-152h-788l-2 -422q70 23 170.5 41.5t193.5 18.5q232 0 362 -130t130 -356q0 -213 -155.5 -335.5t-414.5 -122.5 q-165 0 -277 18t-233 70z" />
<glyph unicode="6" horiz-adv-x="1359" d="M117 612q0 180 31 323.5t85.5 240t131.5 160.5t164.5 92t189.5 28q146 0 256 -38.5t217 -110.5l-78 -136q-190 134 -387 134q-206 0 -327 -149t-121 -423q51 86 167 142.5t254 56.5q111 0 211 -28.5t180 -84t127.5 -145.5t47.5 -203q0 -146 -78.5 -257t-210.5 -168.5 t-295 -57.5q-115 0 -219 46.5t-180.5 128t-121 198.5t-44.5 251zM301 479q0 -57 31 -117.5t82 -108.5t122.5 -79t145.5 -31q194 0 303 91.5t109 238.5q0 146 -113.5 226.5t-284.5 80.5q-105 0 -193.5 -33.5t-145 -103.5t-56.5 -164z" />
<glyph unicode="7" horiz-adv-x="1198" d="M100 1294v150h1030v-84l-694 -1360h-190l663 1294h-809z" />
<glyph unicode="8" horiz-adv-x="1298" d="M86 412q0 136 84.5 238.5t218.5 133.5q-97 28 -159 111t-62 190q0 93 38 165.5t105 116.5t153.5 66.5t188.5 22.5t188.5 -22.5t154 -66.5t105.5 -116.5t38 -165.5q0 -107 -62 -189t-159 -112q134 -33 218.5 -134.5t84.5 -237.5q0 -137 -78 -234.5t-204.5 -143.5 t-285.5 -46q-160 0 -286 46t-203.5 143.5t-77.5 234.5zM254 416q0 -90 55 -154t143.5 -93.5t200.5 -29.5t200.5 29.5t143 93.5t54.5 154q0 121 -112.5 199.5t-285.5 78.5q-174 0 -286.5 -78.5t-112.5 -199.5zM324 1081q0 -100 91.5 -164.5t237.5 -64.5t238 64.5t92 164.5 q0 78 -46 130.5t-118 75t-166 22.5q-145 0 -237 -56.5t-92 -171.5z" />
<glyph unicode="9" horiz-adv-x="1357" d="M104 973q0 146 75.5 257t205 168.5t291.5 57.5q118 0 223.5 -47t183 -128.5t123 -198.5t45.5 -251q0 -180 -31 -323.5t-85.5 -239.5t-131.5 -160t-164.5 -92t-189.5 -28q-146 0 -256 38.5t-217 110.5l78 129q180 -127 387 -127q203 0 320 148t129 424 q-51 -85 -167.5 -142t-254.5 -57q-111 0 -210.5 28.5t-179.5 84t-127 145.5t-47 203zM274 971q0 -101 55 -171.5t143 -103t200 -32.5q103 0 193 37.5t146 107.5t56 156q0 57 -31 118t-82 110.5t-122.5 81.5t-145.5 32q-194 0 -303 -94.5t-109 -241.5z" />
<glyph unicode=":" horiz-adv-x="452" d="M115 94q0 44 31 75.5t75 31.5t75.5 -31.5t31.5 -75.5t-31.5 -75t-75.5 -31t-75 31t-31 75zM115 997q0 44 31 75.5t75 31.5t75.5 -31.5t31.5 -75.5t-31 -74t-76 -30q-44 0 -75 30t-31 74z" />
<glyph unicode=";" horiz-adv-x="448" d="M37 -186q65 6 116 56t54 120q-38 5 -65 34.5t-27 69.5q0 44 31 75.5t73 31.5q51 0 80 -34t29 -97q0 -145 -70 -236t-197 -94zM115 997q0 44 31 75.5t75 31.5q43 0 75 -31.5t32 -75.5t-32 -74t-75 -30q-44 0 -75 30t-31 74z" />
<glyph unicode="&#x3c;" horiz-adv-x="1265" d="M121 674v84l991 485v-160l-764 -368l764 -367v-160z" />
<glyph unicode="=" horiz-adv-x="1282" d="M150 342v143h978v-143h-978zM150 934v143h978v-143h-978z" />
<glyph unicode="&#x3e;" horiz-adv-x="1267" d="M168 188v160l762 367l-762 368v160l991 -485v-84z" />
<glyph unicode="?" horiz-adv-x="1105" d="M23 1352q115 62 216 83t255 21q242 0 385 -123.5t143 -341.5q0 -167 -128.5 -275t-350.5 -108l-11 -223h-122l-11 295l19 41h57q187 0 290 75t103 197q0 146 -103.5 231t-266.5 85q-129 0 -222.5 -19.5t-193.5 -70.5zM362 94q0 44 31 75.5t74 31.5q45 0 76.5 -31.5 t31.5 -75.5t-31 -75t-77 -31q-43 0 -74 31t-31 75z" />
<glyph unicode="@" horiz-adv-x="1976" d="M94 584q0 183 71.5 349.5t192 286.5t287.5 191.5t350 71.5t349.5 -70.5t286.5 -190.5t191.5 -285.5t71.5 -348.5q0 -202 -128.5 -343t-313.5 -141q-124 0 -187 57.5t-63 162.5v14q-46 -94 -147.5 -151.5t-210.5 -57.5q-174 0 -283.5 123.5t-109.5 300.5q0 139 63.5 262.5 t173 199t236.5 75.5q116 0 204 -63t127 -167l29 189l143 -23q-94 -619 -94 -629q0 -198 154 -198q96 0 171 57.5t112.5 145t37.5 184.5q0 166 -64 315.5t-172.5 258t-259 172t-317.5 63.5q-168 0 -318.5 -64t-259 -172.5t-172 -258.5t-63.5 -316q0 -221 108.5 -408 t295.5 -296t409 -109q321 0 537 186q18 -18 30 -30.5t16.5 -17.5t6.5 -7q-120 -104 -272 -161.5t-318 -57.5q-183 0 -350 71.5t-287.5 192t-192 287.5t-71.5 350zM604 569q0 -124 75.5 -209.5t188.5 -85.5q87 0 164 52t124 142.5t48 195.5q0 119 -76 199.5t-188 80.5 q-133 0 -234.5 -110.5t-101.5 -264.5z" />
<glyph unicode="A" d="M39 0l668 1444h96l670 -1444h-185l-162 362h-743l-160 -362h-184zM446 506h617l-309 698z" />
<glyph unicode="B" horiz-adv-x="1435" d="M174 0v1444h569q134 0 227 -84.5t93 -208.5q0 -67 -27 -130.5t-80 -102.5q177 -20 283.5 -153t106.5 -308q0 -91 -28.5 -173t-82.5 -145.5t-138 -101t-188 -37.5h-735zM344 934h393q84 0 126 55t42 123q0 78 -61 130t-156 52h-344v-360zM346 150h481q163 0 249.5 91.5 t86.5 231.5q0 85 -36 158t-113.5 121.5t-184.5 48.5h-483v-651z" />
<glyph unicode="C" horiz-adv-x="1548" d="M106 721q0 149 60 284.5t162 234.5t242.5 157.5t295.5 58.5q175 0 329.5 -73.5t260.5 -202.5l-135 -113q-80 104 -199.5 164.5t-255.5 60.5q-158 0 -290.5 -74t-210.5 -205.5t-78 -291.5q0 -159 78 -290t210.5 -205t290.5 -74q137 0 256 60t199 163l135 -113 q-106 -128 -260 -201t-330 -73q-155 0 -295.5 58.5t-242.5 156.5t-162 233.5t-60 284.5z" />
<glyph unicode="D" d="M174 0v1444h502q197 0 364.5 -97t265 -263.5t97.5 -362.5q0 -189 -90 -355t-247.5 -266t-342.5 -100h-549zM344 158h365q139 0 259.5 78t190.5 208t70 277q0 154 -74 284t-201.5 205.5t-277.5 75.5h-332v-1128z" />
<glyph unicode="E" horiz-adv-x="1318" d="M174 0v1444h1002v-150h-832v-520h705v-147h-705v-477h875v-150h-1045z" />
<glyph unicode="F" horiz-adv-x="1286" d="M174 0v1444h1022v-150h-852v-641h739v-149h-739v-504h-170z" />
<glyph unicode="G" horiz-adv-x="1619" d="M106 721q0 148 60.5 284t163 234t244 156.5t296.5 58.5q174 0 320 -54.5t252 -152.5l-111 -121q-184 166 -461 166q-159 0 -294 -76.5t-213 -208t-78 -286.5q0 -119 46 -226t124.5 -184t187 -122.5t227.5 -45.5q257 0 449 142v262h-483v145h659v-493 q-123 -99 -284.5 -155t-340.5 -56q-155 0 -296.5 58.5t-244 156.5t-163 234t-60.5 284z" />
<glyph unicode="H" d="M174 0v1444h170v-739h819v739h172v-1444h-172v555h-819v-555h-170z" />
<glyph unicode="I" horiz-adv-x="530" d="M176 0v1444h178v-1444h-178z" />
<glyph unicode="J" horiz-adv-x="1216" d="M49 424l154 14q25 -126 119.5 -207t224.5 -81q164 0 253 110t89 289v895h174v-854q0 -181 -54 -314t-170.5 -210.5t-287.5 -77.5q-191 0 -333.5 124.5t-168.5 311.5z" />
<glyph unicode="K" horiz-adv-x="1429" d="M174 0v1444h170v-858l786 858h216l-639 -705l657 -739h-234l-538 610l-248 -268v-342h-170z" />
<glyph unicode="L" horiz-adv-x="1226" d="M174 0v1444h176v-1299h801v-145h-977z" />
<glyph unicode="M" horiz-adv-x="1785" d="M174 0v1444h92l627 -959l627 959h92v-1444h-176v1044l-543 -851l-543 851v-1044h-176z" />
<glyph unicode="N" horiz-adv-x="1583" d="M174 0v1444h92l969 -1114v1114h174v-1444h-92l-967 1114v-1114h-176z" />
<glyph unicode="O" horiz-adv-x="1740" d="M106 721q0 148 60.5 284t162.5 234t243 156.5t296 58.5q156 0 297.5 -58.5t244 -156.5t162.5 -233.5t60 -284.5t-60 -284.5t-162.5 -233.5t-244 -156.5t-297.5 -58.5q-155 0 -296 58.5t-243 156.5t-162.5 234t-60.5 284zM285 721q0 -155 78 -286.5t212.5 -208 t292.5 -76.5q159 0 293.5 76.5t212.5 208t78 286.5t-78 286.5t-212.5 208t-293.5 76.5q-158 0 -292.5 -76.5t-212.5 -208t-78 -286.5z" />
<glyph unicode="P" horiz-adv-x="1351" d="M174 0v1444h571q114 0 205.5 -26.5t151.5 -72t100 -108.5t57 -132.5t17 -148.5q0 -108 -28 -194t-79 -145.5t-124.5 -99t-161.5 -57.5t-193 -18h-340v-442h-176zM350 588h326q199 0 307.5 90.5t108.5 267.5q0 71 -20 131t-61.5 110t-115.5 78.5t-174 28.5h-371v-706z" />
<glyph unicode="Q" horiz-adv-x="1740" d="M106 721q0 148 60.5 284t162.5 234t243 156.5t296 58.5t296.5 -58.5t244 -156.5t163 -234t60.5 -284q0 -146 -58.5 -277.5t-162.5 -230.5l154 -129l-84 -100l-168 141q-199 -137 -445 -137q-155 0 -296 58.5t-243 156.5t-162.5 234t-60.5 284zM285 721q0 -155 78 -286.5 t212.5 -208t292.5 -76.5q169 0 310 88l-109 92l84 102l121 -104q83 73 130.5 175.5t47.5 217.5q0 155 -78 286.5t-212.5 208t-293.5 76.5q-158 0 -292.5 -76.5t-212.5 -208t-78 -286.5z" />
<glyph unicode="R" horiz-adv-x="1400" d="M174 0v1444h592q143 0 248.5 -40t165.5 -110t88 -154t28 -184q0 -189 -83 -308t-238 -167l364 -481h-213l-327 446q-62 -4 -97 -4h-352v-442h-176zM350 588h346q200 0 309 90.5t109 267.5q0 71 -20 131t-62 110t-116 78.5t-173 28.5h-393v-706z" />
<glyph unicode="S" horiz-adv-x="1310" d="M102 117l66 135q148 -72 251.5 -94.5t260.5 -22.5q161 0 255.5 65t94.5 181q0 45 -18.5 81t-49 62t-81.5 49t-103.5 39t-126.5 33q-72 17 -122.5 31t-111 35t-100.5 42t-81 52t-65 66.5t-39 82.5t-15 103q0 177 137.5 288t370.5 111q137 0 279.5 -32t246.5 -81l-74 -139 q-92 44 -220 72.5t-234 28.5q-153 0 -241.5 -66t-88.5 -172q0 -45 20 -81t52 -62t86.5 -49t109.5 -39t135 -35q96 -23 166 -44.5t139 -55.5t111.5 -75t69 -100t26.5 -133q0 -191 -145 -300t-389 -109q-184 0 -294.5 24.5t-277.5 108.5z" />
<glyph unicode="T" horiz-adv-x="1351" d="M96 1294v150h1168v-150h-496v-1294h-178v1294h-494z" />
<glyph unicode="U" horiz-adv-x="1546" d="M168 580v864h172v-828q0 -218 111.5 -343.5t320.5 -125.5q210 0 324 126t114 343v828h170v-864q0 -124 -40 -231t-114.5 -188t-191.5 -127t-262 -46q-144 0 -260 46t-190.5 126.5t-114 187.5t-39.5 232z" />
<glyph unicode="V" horiz-adv-x="1556" d="M68 1444h190l524 -1155l525 1155h192l-672 -1444h-88z" />
<glyph unicode="W" horiz-adv-x="2287" d="M55 1444h189l413 -1118l439 1118h82l436 -1118l414 1118h188l-555 -1444h-80l-444 1153l-445 -1153h-80z" />
<glyph unicode="X" horiz-adv-x="1449" d="M70 0l548 725l-540 719h198l455 -590l455 590h198l-540 -719l547 -725h-203l-457 594l-459 -594h-202z" />
<glyph unicode="Y" horiz-adv-x="1374" d="M35 1444h201l452 -766l451 766h202l-565 -948v-496h-176v496z" />
<glyph unicode="Z" horiz-adv-x="1359" d="M96 0v76l908 1218h-859v150h1112v-78l-907 -1216h918v-150h-1172z" />
<glyph unicode="[" horiz-adv-x="696" d="M176 -260v1696h461v-127h-315v-1442h315v-127h-461z" />
<glyph unicode="\" horiz-adv-x="925" d="M-47 1634h145l908 -1896h-146z" />
<glyph unicode="]" horiz-adv-x="718" d="M82 -133h315v1442h-315v127h459v-1696h-459v127z" />
<glyph unicode="^" horiz-adv-x="927" d="M80 1004l344 440h84l344 -440h-133l-254 327l-254 -327h-131z" />
<glyph unicode="_" horiz-adv-x="1198" d="M-6 -63h1210v-105h-1210v105z" />
<glyph unicode="`" horiz-adv-x="935" d="M225 1868l193 14l284 -336h-120z" />
<glyph unicode="a" horiz-adv-x="1370" d="M96 559q0 113 41.5 216.5t114 181.5t179 124.5t228.5 46.5q108 0 209.5 -32.5t175.5 -89.5v102h170v-1108h-170v111q-162 -123 -385 -123q-122 0 -228.5 46.5t-179 124.5t-114 182t-41.5 218zM260 559q0 -113 55 -209t153.5 -153.5t217.5 -57.5q219 0 358 129v576 q-139 133 -358 133q-182 0 -304 -122.5t-122 -295.5z" />
<glyph unicode="b" horiz-adv-x="1372" d="M156 0v1544h170v-532q161 116 383 116q156 0 286.5 -72.5t207.5 -204.5t77 -294q0 -161 -77 -292t-207.5 -204t-286.5 -73q-107 0 -208 32t-175 89v-109h-170zM326 272q139 -133 358 -133q180 0 303 120t123 298q0 177 -123 298.5t-303 121.5q-223 0 -358 -129v-576z" />
<glyph unicode="c" horiz-adv-x="1193" d="M90 557q0 116 48 221.5t128.5 182t192.5 122t235 45.5q125 0 233 -53t183 -147l-113 -103q-55 71 -134 111.5t-169 40.5q-181 0 -308.5 -123t-127.5 -297q0 -172 127.5 -295t308.5 -123q89 0 168.5 42t134.5 114l111 -102q-76 -96 -184 -150.5t-230 -54.5q-123 0 -235 45 t-192.5 121.5t-128.5 182t-48 220.5z" />
<glyph unicode="d" horiz-adv-x="1372" d="M92 557q0 162 77.5 294t208.5 204.5t286 72.5q221 0 385 -116v532h168v-1544h-168v106q-74 -56 -175.5 -87t-209.5 -31q-155 0 -286 73t-208.5 204.5t-77.5 291.5zM262 557q0 -178 123.5 -298t302.5 -120q108 0 201 34.5t160 98.5v576q-139 129 -361 129 q-179 0 -302.5 -121.5t-123.5 -298.5z" />
<glyph unicode="e" horiz-adv-x="1284" d="M92 557q0 157 70.5 287t200.5 207t292 77q246 0 391.5 -160.5t145.5 -418.5l-2 -45h-928q21 -160 142.5 -263.5t279.5 -103.5q104 0 196 42t156 120l113 -90q-78 -103 -207.5 -162t-286.5 -59q-162 0 -292 77t-200.5 206.5t-70.5 285.5zM264 637h762q-13 158 -108.5 255 t-262.5 97q-155 0 -262.5 -100t-128.5 -252z" />
<glyph unicode="f" horiz-adv-x="780" d="M-43 -236q7 0 27 -1t32 -1q109 0 162 59.5t53 198.5v947h-186v141h186v51q0 188 84 291.5t252 103.5q111 0 205 -30v-129q-77 14 -151 14q-130 0 -175 -60t-45 -198v-43h355v-141h-355v-1016q0 -147 -92.5 -239.5t-232.5 -92.5q-57 0 -119 8v137z" />
<glyph unicode="g" horiz-adv-x="1372" d="M92 571q0 158 77 286t207.5 199.5t285.5 71.5q108 0 209.5 -32t175.5 -88v100h170v-948q0 -85 -20 -162.5t-63.5 -147.5t-106.5 -121.5t-155 -81.5t-204 -30q-55 0 -98 1t-82.5 5.5t-61.5 6.5t-59 11t-50 12.5t-58 17t-62 18.5l32 127q88 -26 130.5 -36.5t114.5 -20 t159 -9.5q97 0 174 28t124.5 76t74.5 107.5t32 126.5q0 5 1 17.5t1 17.5q-163 -111 -378 -111q-155 0 -285.5 72t-207.5 200.5t-77 286.5zM260 569q0 -173 123.5 -289t304.5 -116q225 0 359 125v557q-67 62 -160 96.5t-199 34.5q-180 0 -304 -118.5t-124 -289.5z" />
<glyph unicode="h" horiz-adv-x="1304" d="M156 0v1544h170v-536q142 120 370 120q227 0 351 -124.5t124 -374.5v-629h-170v629q0 167 -90.5 257.5t-240.5 90.5q-202 0 -344 -123v-854h-170z" />
<glyph unicode="i" horiz-adv-x="491" d="M137 1399q0 44 32 74t77 30q43 0 73.5 -30t30.5 -74t-30.5 -75.5t-73.5 -31.5q-44 0 -76.5 31.5t-32.5 75.5zM160 0v1108h170v-1108h-170z" />
<glyph unicode="j" horiz-adv-x="489" d="M-115 -233q24 -3 58 -3q109 0 162 61t53 195v1088h172v-1157q0 -159 -90.5 -246.5t-229.5 -87.5q-59 0 -125 12v138zM135 1399q0 44 31 74t76 30q44 0 75 -30t31 -74t-31 -75.5t-75 -31.5t-75.5 31.5t-31.5 75.5z" />
<glyph unicode="k" horiz-adv-x="1247" d="M156 0v1544h170v-1089l673 653h209l-428 -426l430 -682h-192l-352 553l-340 -322v-231h-170z" />
<glyph unicode="l" horiz-adv-x="489" d="M158 0v1544h172v-1544h-172z" />
<glyph unicode="m" horiz-adv-x="2033" d="M156 0v1108h170v-107q139 127 358 127q247 0 363 -165q70 79 167.5 122t210.5 43q228 0 353 -124.5t125 -374.5v-629h-170v629q0 168 -90 258t-242 90q-174 0 -301 -127q30 -88 30 -221v-629h-169v629q0 167 -83 257.5t-221 90.5q-196 0 -331 -125v-852h-170z" />
<glyph unicode="n" horiz-adv-x="1306" d="M156 0v1108h170v-107q142 127 370 127q227 0 351 -124.5t124 -374.5v-629h-170v629q0 168 -89.5 258t-241.5 90q-203 0 -344 -125v-852h-170z" />
<glyph unicode="o" horiz-adv-x="1386" d="M88 557q0 116 48 221.5t128.5 182t192.5 122t235 45.5q122 0 233.5 -45.5t192.5 -122t128.5 -182t47.5 -221.5q0 -154 -80.5 -285t-219.5 -207.5t-302 -76.5q-123 0 -235 45t-192.5 121.5t-128.5 182t-48 220.5zM256 557q0 -172 127.5 -295t308.5 -123q180 0 307 123 t127 295q0 173 -127 296.5t-307 123.5q-181 0 -308.5 -123t-127.5 -297z" />
<glyph unicode="p" horiz-adv-x="1376" d="M156 -358v1466h170v-100q72 56 174 88t209 32q156 0 286.5 -72.5t207.5 -203.5t77 -293t-77 -293.5t-207.5 -204.5t-286.5 -73q-222 0 -383 116v-462h-170zM326 268q135 -129 358 -129q181 0 303.5 120.5t122.5 299.5q0 175 -123 296.5t-303 121.5q-108 0 -200.5 -34.5 t-157.5 -98.5v-576z" />
<glyph unicode="q" horiz-adv-x="1376" d="M96 559q0 161 77 292.5t207.5 204t285.5 72.5q108 0 209.5 -32t175.5 -88v100h170v-1466h-170v462q-164 -116 -385 -116q-155 0 -285.5 73t-207.5 205t-77 293zM264 559q0 -179 123.5 -299.5t304.5 -120.5q217 0 359 129v576q-67 63 -160 98t-199 35q-180 0 -304 -121.5 t-124 -296.5z" />
<glyph unicode="r" horiz-adv-x="890" d="M156 0v1108h170v-217q54 109 147 172.5t217 64.5q70 0 135 -32l-12 -166q-82 33 -158 33q-102 0 -178 -57t-113.5 -147t-37.5 -198v-561h-170z" />
<glyph unicode="s" horiz-adv-x="1083" d="M88 90l64 127q113 -45 208 -68.5t199 -23.5q143 0 211 52.5t68 131.5q0 75 -75.5 116t-238.5 75q-98 21 -168.5 45.5t-129 61t-88 88.5t-29.5 120q0 137 115 225t296 88q204 0 418 -86l-57 -127q-171 74 -365 74q-112 0 -183 -46t-71 -120q0 -70 73 -109.5t238 -72.5 q102 -20 175 -45.5t131 -63t87 -91t29 -124.5q0 -145 -111.5 -237t-328.5 -92q-235 0 -467 102z" />
<glyph unicode="t" horiz-adv-x="823" d="M45 967v141h182v436h172v-436h375v-141h-375v-557q0 -150 51.5 -212.5t161.5 -62.5q66 0 158 15v-130q-108 -32 -223 -32q-139 0 -229.5 87.5t-90.5 246.5v645h-182z" />
<glyph unicode="u" horiz-adv-x="1320" d="M137 487v621h168v-621q0 -168 91 -258t243 -90q212 0 356 125v844h170v-1108h-170v115q-149 -127 -383 -127q-227 0 -351 124.5t-124 374.5z" />
<glyph unicode="v" horiz-adv-x="1253" d="M45 1108h182l402 -832l397 832h182l-536 -1108h-86z" />
<glyph unicode="w" horiz-adv-x="1746" d="M33 1108h172l315 -832l307 832h93l307 -832l315 832h170l-424 -1108h-88l-326 852l-325 -852h-88z" />
<glyph unicode="x" horiz-adv-x="1193" d="M55 0l447 559l-445 549h197l346 -422l346 422h197l-445 -549l449 -559h-193l-354 422l-356 -422h-189z" />
<glyph unicode="y" horiz-adv-x="1255" d="M55 1108h181l391 -907h37l356 907h176l-465 -1167q-34 -84 -96 -148t-140 -101t-161 -55t-170 -18q-55 0 -80 2l18 129h27q162 0 279 60t167 190h-45z" />
<glyph unicode="z" horiz-adv-x="1191" d="M86 0v88l774 879h-739v141h999v-84l-778 -885h770v-139h-1026z" />
<glyph unicode="{" horiz-adv-x="847" d="M68 510v127q59 0 102 3t77 14.5t56 22t37.5 38t23 48t12 67.5t5 81t0.5 103v151q0 55 11 97.5t28.5 72t47.5 51t61 33.5t75.5 18.5t84 8.5t93.5 2v-115q-143 0 -204.5 -45.5t-61.5 -177.5v-190q0 -163 -35.5 -242.5t-132.5 -104.5q98 -23 133 -96.5t35 -236.5v-215 q0 -131 61.5 -177.5t204.5 -46.5v-114q-54 0 -93.5 2t-84 9t-75.5 19t-60.5 33t-47.5 50.5t-29 72t-11 96.5v178q0 91 -1.5 132.5t-11.5 93t-27.5 70t-54 38.5t-87.5 24.5t-131 4.5z" />
<glyph unicode="|" horiz-adv-x="583" d="M215 -262v1896h135v-1896h-135z" />
<glyph unicode="}" horiz-adv-x="843" d="M72 -199q143 0 203.5 46t60.5 178v215q0 163 35 236.5t135 96.5q-99 25 -134.5 104.5t-35.5 242.5v190q0 132 -60.5 177.5t-203.5 45.5v115q54 0 93 -2t83.5 -8.5t75.5 -18.5t61 -33.5t48 -51t29 -72t11 -97.5v-151q0 -69 0.5 -103t5 -81t12 -67.5t23 -48t37 -38 t55.5 -22t76.5 -14.5t101.5 -3v-127q-79 0 -129.5 -4.5t-87 -24.5t-54.5 -38.5t-27.5 -70t-11 -93t-1.5 -132.5v-178q0 -54 -11 -96.5t-29 -72t-48 -50.5t-61 -33t-75.5 -19t-83.5 -9t-93 -2v114z" />
<glyph unicode="~" horiz-adv-x="970" d="M90 494q10 125 70.5 193.5t156.5 68.5q53 0 116 -23.5t121 -47t97 -23.5q47 0 84.5 38.5t52.5 108.5l91 -12q-12 -123 -72 -191.5t-143 -68.5q-64 0 -177.5 47t-154.5 47q-113 0 -154 -148z" />
<glyph unicode="&#xa1;" horiz-adv-x="477" d="M129 1348q0 44 31.5 75t75.5 31t75 -31t31 -75t-31 -75.5t-75 -31.5t-75.5 31.5t-31.5 75.5zM145 0l31 1028h115l31 -1028h-177z" />
<glyph unicode="&#xa2;" horiz-adv-x="1177" d="M70 752q0 127 51.5 236t137 182t197 114t232.5 41l29 137h119l-31 -155q172 -37 293 -174l-111 -95q-90 103 -211 127l-170 -839q46 -9 96 -9q169 12 285 154l109 -96q-76 -90 -183 -142t-227 -55q-64 0 -108 10l-37 -188h-121l43 213q-174 62 -283.5 209.5t-109.5 329.5 zM221 752q0 -132 74.5 -240t196.5 -158l167 836q-186 -9 -312 -135t-126 -303z" />
<glyph unicode="&#xa3;" horiz-adv-x="1308" d="M88 0v84l221 55q-39 293 -51 443h-156v133h148q-6 76 -6 139q0 158 39 276t110 188.5t163.5 104t207.5 33.5q143 0 262 -70.5t186 -189.5l-116 -94q-48 88 -135.5 141t-192.5 53q-173 0 -260.5 -110t-87.5 -305q0 -75 6 -166h586v-133h-576q13 -122 53 -437h748v-145 h-1149z" />
<glyph unicode="&#xa4;" horiz-adv-x="1992" d="M96 -229h10l21 -68q0 -8 2 -8q0 4 2 10l16 66h9l16 -66l4 -10q0 4 2 8l21 68h8l-27 -86h-10l-16 59l-2 10q0 -4 -2 -10l-17 -59h-8zM174 45v180h62q37 0 63.5 -26.5t26.5 -63.5t-24.5 -63t-61.5 -27h-66zM219 -229h10l21 -68l2 -8q0 4 2 10l16 66h11l16 -66l2 -10 q0 4 2 8l21 68h8l-27 -86h-10l-14 59l-5 10q0 -4 -2 -10l-16 -59h-8zM221 88h15q17 0 28.5 13.5t11.5 33.5q0 19 -11.5 32t-28.5 13h-15v-92zM340 45v180h129v-41h-80v-24h53v-35h-53v-41h86v-39h-135zM346 -229h10l21 -68l2 -8q0 4 2 10l16 66h9l16 -66l4 -10q0 4 2 8 l21 68h8l-27 -86h-10l-17 59l-2 10q0 -4 -2 -10l-16 -59h-8zM406 922q0 116 64.5 210t168.5 136q42 104 136.5 168.5t211.5 64.5q116 0 210 -64.5t136 -168.5q104 -42 169 -136t65 -210q0 -117 -65 -212t-169 -137q-42 -104 -136 -168.5t-210 -64.5q-117 0 -211.5 64.5 t-136.5 168.5q-104 42 -168.5 137t-64.5 212zM461 -311q0 8 8 8q6 0 6 -8q0 -6 -6 -6q-8 0 -8 6zM487 59l19 37q32 -14 61 -14q21 0 21 12v2q0 9 -29 17q-34 7 -50.5 18.5t-16.5 38.5q0 25 17.5 41t49.5 16t74 -14l-21 -39q-32 12 -53 12q-18 0 -18 -12q0 -11 30 -18 q68 -13 68 -56q0 -28 -20 -43.5t-54 -15.5q-41 0 -78 18zM500 -231h8v-86h-8v86zM530 -231h9l45 -64q0 -2 4 -6v70h8v-86h-8l-45 67q-4 4 -4 6v-73h-9v86zM616 -231h62v-9h-27v-77h-10v77h-25v9zM655 45v180h50v-180h-50zM698 -231h52v-9h-43v-36h41v-9h-41v-22h45v-10h-54 v86zM713 602h88v141l141 -141v275h-229v-275zM713 965h229v274l-141 -141v141h-88v-274zM719 135q0 38 28 65t68 27q45 0 74 -26l-33 -33q-18 14 -41 14q-19 0 -32 -13.5t-13 -33.5q0 -22 13 -36.5t32 -14.5q13 0 29 8v8h-33v35h84v-67q-25 -18 -51 -23q-16 -4 -29 -4 q-40 0 -68 28t-28 66zM768 -231h10v-76h39v-10h-49v86zM838 -231h8v-76h41v-10h-49v86zM903 -231h8v-86h-8v86zM913 45v180h23l27 -26l69 -68v94h49v-180h-22l-27 25l-69 67v-92h-50zM930 -274q0 19 13 32t32 13q18 0 33 -15l-7 -6q-12 12 -26 12t-24.5 -10.5t-10.5 -25.5 q0 -14 10 -24.5t25 -10.5q16 0 24 8v10h-20v8h31v-22q-12 -12 -35 -12q-19 0 -32 12t-13 31zM1028 -231h51v-9h-43v-36h41v-9h-41v-22h45v-10h-53v86zM1030 602h72q65 0 111.5 47t46.5 113q0 68 -50 115h-180v-275zM1030 965h180q50 47 50 114q0 66 -46.5 113t-111.5 47h-72 v-274zM1098 -231h10l43 -64l6 -6v70h8v-86h-8l-47 67q-2 2 -2 4v-2v-69h-10v86zM1104 45v180h131v-41h-82v-24h55v-35h-55v-41h86v-39h-135zM1184 -231h61v-9h-26v-77h-9v77h-26v9zM1262 45v180h61q37 0 63.5 -26.5t26.5 -63.5t-24.5 -62.5t-59.5 -27.5h-67zM1262 -231h24 q13 0 17 -2q26 -10 26 -41q0 -23 -18 -35q-12 -8 -25 -8h-24v86zM1272 -240v-67h14q14 0 24.5 10t10.5 23q0 15 -10.5 24.5t-24.5 9.5h-14zM1311 88h14q17 0 28 13.5t11 33.5q0 19 -12 32t-29 13h-12v-92zM1348 -231h51v-9h-43v-36h41v-9h-41v-22h45v-10h-53v86zM1417 -299 l6 4q3 -14 23 -14q16 0 16 16q0 12 -14 17q-27 12 -27 24q0 9 8 16t17 7q12 0 20 -15l-6 -4q-3 10 -14 10q-14 0 -14 -14q0 -10 20 -16q21 -10 21 -25q0 -10 -8 -17t-19 -7q-25 0 -29 18zM1475 45v180h79q27 0 40.5 -11t13.5 -28q0 -18 -17 -32q35 -14 35 -54 q0 -23 -14.5 -39t-40.5 -16h-96zM1491 -231h8v-86h-8v86zM1518 -274q0 19 13 32t32 13q17 0 32 -15l-8 -6q-9 12 -24 12t-25 -10.5t-10 -25.5q0 -14 10 -24.5t25 -10.5q16 0 24 8v10h-20v8h30v-22q-12 -12 -34 -12q-20 0 -32.5 12t-12.5 31zM1522 84h22q31 0 31 22 q0 21 -37 21h-16v-43zM1522 162h28q15 0 15 10q0 12 -13 12h-30v-22zM1614 223h55l37 -65l37 65h57l-69 -119v-59h-50v59zM1616 -231h8l45 -64q1 -1 2 -3l1.5 -3t0.5 -2v72h8v-86h-8l-47 67q0 1 -1 3t-1 3v-73h-8v86zM1700 -311q0 8 8 8q6 0 6 -8q0 -6 -6 -6q-8 0 -8 6z M1722 -274q0 19 12 32t31 13q18 0 33 -15l-6 -6q-9 12 -27 12q-14 0 -24 -10.5t-10 -25.5q0 -14 10.5 -24.5t23.5 -10.5q16 0 27 8v10h-23v8h31v-22q-6 -12 -33 -12q-20 0 -32.5 12t-12.5 31zM1821 -231h20q14 0 23 -9q12 -12 12 -24q0 -15 -12 -27q-1 0 -9 -4l21 -22h-12 l-17 20q-1 0 -3 -1t-3 -1h-12v-18h-8v86zM1829 -240v-51h12q2 0 5 1t5 1q15 7 15 25q0 10 -7 17t-18 7h-12z" />
<glyph unicode="&#xa5;" horiz-adv-x="1449" d="M63 1444h201l451 -766l450 766h203l-475 -797h326v-121h-396l-18 -41v-45h414v-121h-414v-319h-178v319h-414v121h414v45l-19 41h-395v121h324z" />
<glyph unicode="&#xa6;" horiz-adv-x="571" d="M217 -260v784h135v-784h-135zM217 850v784h135v-784h-135z" />
<glyph unicode="&#xa7;" horiz-adv-x="1282" d="M143 748q0 64 49 120.5t125 81.5q-127 70 -127 207q0 96 58 165.5t148 102.5t198 33q206 0 467 -90l-53 -129q-254 86 -416 86q-102 0 -175 -48t-73 -132q0 -26 10.5 -46.5t35 -38t47.5 -29.5t67.5 -25t74 -21t86.5 -21q28 -7 42 -10q65 -16 104 -26t88 -25.5t76.5 -29.5 t58 -35t45.5 -44.5t25 -55t10 -70.5q0 -64 -43.5 -119t-95.5 -76q74 -55 74 -160q0 -135 -110.5 -229t-309.5 -94q-136 0 -246 22t-223 78l65 119q99 -46 179 -67t202 -21q133 0 208 55t75 125q0 60 -64.5 90.5t-267.5 79.5q-170 42 -227 63q-163 63 -184 177q-3 18 -3 37z M279 762q0 -39 37.5 -70t104.5 -52.5t135.5 -37.5t155.5 -36t140 -38q39 8 82 46.5t43 89.5q0 55 -61 91t-220 74q-185 42 -264 70q-62 -21 -107.5 -61t-45.5 -76z" />
<glyph unicode="&#xa8;" horiz-adv-x="1024" d="M244 1661q0 38 27 65t65 27t65 -27t27 -65t-27 -65t-65 -27t-65 27t-27 65zM596 1661q0 38 27 65t67 27q37 0 64.5 -27t27.5 -65t-27.5 -65t-64.5 -27q-40 0 -67 27t-27 65z" />
<glyph unicode="&#xa9;" horiz-adv-x="1699" d="M119 725q0 196 96.5 365.5t266.5 270.5t372 101q201 0 369 -100.5t264 -270t96 -366.5q0 -196 -96.5 -365.5t-265.5 -270.5t-371 -101t-370.5 100.5t-264.5 270t-96 366.5zM186 723q0 -180 87 -334t240 -245t337 -91t337.5 91.5t241 246t87.5 334.5q0 181 -87 335 t-239.5 244.5t-335.5 90.5q-185 0 -339 -91t-241.5 -245.5t-87.5 -335.5zM436 725q0 178 123 303t297 125q97 0 182.5 -42.5t143.5 -117.5l-84 -69q-42 58 -106 91.5t-136 33.5q-127 0 -217 -95t-90 -229q0 -135 90 -230.5t217 -95.5q72 0 136 33.5t106 91.5l84 -69 q-58 -75 -143.5 -117.5t-182.5 -42.5q-174 0 -297 126t-123 304z" />
<glyph unicode="&#xaa;" horiz-adv-x="1001" d="M102 1036q0 163 112 280.5t282 117.5q135 0 249 -72v57h127v-764h-127v58q-107 -74 -249 -74q-112 0 -203.5 55t-141 146t-49.5 196zM225 1036q0 -116 83 -199t206 -83q138 0 231 77v408q-40 37 -101.5 58.5t-129.5 21.5q-123 0 -206 -83t-83 -200z" />
<glyph unicode="&#xab;" horiz-adv-x="1130" d="M98 545l357 526l112 -80l-313 -446l313 -445l-112 -82zM567 545l357 526l112 -80l-313 -446l313 -445l-112 -82z" />
<glyph unicode="&#xac;" horiz-adv-x="1216" d="M82 821v146h1024v-488h-148v342h-876z" />
<glyph unicode="&#xad;" horiz-adv-x="835" d="M94 608v144h647v-144h-647z" />
<glyph unicode="&#xae;" horiz-adv-x="1699" d="M119 725q0 196 97 365.5t266.5 270.5t371.5 101q201 0 369.5 -100.5t265 -270t96.5 -366.5q0 -196 -97 -365.5t-266.5 -270.5t-371.5 -101q-201 0 -369.5 100.5t-265 270t-96.5 366.5zM186 723q0 -180 87 -334t240 -245t337 -91q138 0 262.5 54t212.5 145t139.5 214.5 t51.5 258.5q0 181 -86.5 335t-239 244.5t-336.5 90.5q-185 0 -339 -91t-241.5 -245.5t-87.5 -335.5zM545 315v832h342q82 0 143 -23t95 -63t50.5 -88t16.5 -105q0 -201 -166 -266l188 -233l-79 -74l-230 276q-14 -2 -49 -2h-199v-254h-112zM657 657h191q107 0 167 51.5 t60 149.5q0 84 -48.5 138.5t-154.5 54.5h-215v-394z" />
<glyph unicode="&#xaf;" horiz-adv-x="1024" d="M188 1602v112h648v-112h-648z" />
<glyph unicode="&#xb0;" horiz-adv-x="966" d="M111 1110q0 148 111.5 256.5t260.5 108.5t261 -109t112 -260q0 -148 -110.5 -254.5t-262.5 -106.5q-153 0 -262.5 107.5t-109.5 257.5zM213 1108q0 -109 80 -186.5t190 -77.5q111 0 191 78t80 186q0 109 -81.5 188.5t-189.5 79.5q-109 0 -189.5 -79t-80.5 -189z" />
<glyph unicode="&#xb1;" horiz-adv-x="1310" d="M145 0v141h1024v-141h-1024zM145 813v141h443v441h139v-441h442v-141h-442v-440h-139v440h-443z" />
<glyph unicode="&#xb2;" horiz-adv-x="849" d="M94 612v50q39 63 110.5 116.5t141.5 89.5t135.5 73.5t106.5 87t41 112.5q0 93 -65.5 157t-157.5 64q-93 0 -154 -70q-57 -60 -57 -151v-13h-101v19q0 136 92 226.5t222 90.5q133 0 229 -91.5t96 -225.5q0 -65 -22.5 -116.5t-57 -84t-82.5 -63.5t-93.5 -53t-96.5 -54 t-84 -65h442v-99h-645z" />
<glyph unicode="&#xb3;" horiz-adv-x="849" d="M70 662l41 88q126 -54 278 -54q98 0 160.5 46t62.5 126q0 68 -62.5 112t-168.5 44h-43l-23 45l222 277h-424v96h592v-49l-238 -293q113 -14 183.5 -74.5t70.5 -157.5q0 -125 -91 -196.5t-243 -71.5q-100 0 -168.5 13t-148.5 49z" />
<glyph unicode="&#xb4;" horiz-adv-x="1024" d="M315 1546l285 336l191 -14l-357 -322h-119z" />
<glyph unicode="&#xb5;" horiz-adv-x="1341" d="M156 -350v1458h170v-621q0 -167 90 -257.5t241 -90.5q215 0 359 125v844h168v-1108h-168v111q-145 -123 -371 -123q-104 0 -188 45t-131 129v-512h-170z" />
<glyph unicode="&#xb6;" horiz-adv-x="1157" d="M57 979q0 218 137 336.5t373 118.5h449v-1434h-129v1280h-142v-1280h-129v528h-43q-231 0 -373.5 118.5t-142.5 332.5zM240 991q0 -133 96.5 -216t234.5 -83h45v588h-41q-146 0 -240.5 -76t-94.5 -213z" />
<glyph unicode="&#xb7;" horiz-adv-x="415" d="M96 641q0 44 31.5 75.5t75.5 31.5t75 -31.5t31 -75.5t-31 -75t-75 -31t-75.5 31t-31.5 75z" />
<glyph unicode="&#xb8;" horiz-adv-x="878" d="M254 -371l2 70q42 -10 94 -10q64 0 99.5 25.5t35.5 62.5q0 67 -143 67l113 158h108l-57 -117q40 0 69 -31.5t29 -86.5q-5 -61 -57.5 -105.5t-157.5 -44.5q-31 0 -65 3t-52 6z" />
<glyph unicode="&#xb9;" horiz-adv-x="731" d="M168 1382l274 62h47v-832h-110v721l-189 -41z" />
<glyph unicode="&#xba;" horiz-adv-x="1038" d="M88 1038q0 166 123.5 283t298.5 117q174 0 298 -117.5t124 -282.5q0 -164 -124 -280.5t-298 -116.5q-175 0 -298.5 116.5t-123.5 280.5zM213 1038q0 -117 87 -199.5t210 -82.5q122 0 209.5 82.5t87.5 199.5q0 118 -87.5 201.5t-209.5 83.5q-123 0 -210 -83.5t-87 -201.5z " />
<glyph unicode="&#xbb;" horiz-adv-x="1126" d="M106 100l314 445l-314 446l113 80l356 -526l-356 -527zM575 100l312 445l-312 446l111 80l356 -526l-356 -527z" />
<glyph unicode="&#xbc;" horiz-adv-x="1769" d="M137 1382l273 62h49v-832h-113v721l-186 -41zM283 0l989 1436h133l-989 -1436h-133zM915 262l494 572h84v-541h156v-94h-156v-199h-109v199h-440zM1065 293h319v371z" />
<glyph unicode="&#xbd;" horiz-adv-x="1867" d="M137 1382l273 62h49v-832h-113v721l-186 -41zM285 0l989 1436h131l-989 -1436h-131zM1075 0v49q39 63 110.5 116.5t141.5 89.5t135.5 73.5t106.5 87t41 112.5q0 93 -66 157.5t-158 64.5q-90 0 -150 -67t-60 -155v-12h-101v19q0 136 92 226.5t222 90.5q133 0 229 -91.5 t96 -225.5q0 -65 -22.5 -116.5t-57 -84t-82.5 -63.5t-93.5 -53t-96.5 -54.5t-84 -65.5h442v-98h-645z" />
<glyph unicode="&#xbe;" horiz-adv-x="1822" d="M70 662l41 88q126 -54 278 -54q98 0 160.5 46t62.5 126q0 69 -61.5 112.5t-169.5 43.5h-43l-23 45l222 277h-424v96h592v-49l-238 -293q113 -14 183.5 -74.5t70.5 -157.5q0 -125 -91 -196.5t-243 -71.5q-100 0 -168.5 13t-148.5 49zM362 0l990 1436h131l-989 -1436h-132z M995 262l492 572h84v-541h158v-94h-158v-199h-109v199h-440zM1143 293h319v371z" />
<glyph unicode="&#xbf;" horiz-adv-x="1105" d="M84 451q0 167 128.5 275t350.5 108l10 223h123l11 -295l-19 -41h-57q-187 0 -290 -75t-103 -197q0 -146 103.5 -231t266.5 -85q129 0 222.5 19.5t193.5 70.5l59 -133q-115 -62 -216 -83t-255 -21q-242 0 -385 123.5t-143 341.5zM530 1348q0 44 31.5 75t77.5 31 q43 0 73.5 -31t30.5 -75t-30.5 -75.5t-73.5 -31.5q-46 0 -77.5 31.5t-31.5 75.5z" />
<glyph unicode="&#xc0;" d="M39 0l668 1444h96l670 -1444h-185l-162 362h-743l-160 -362h-184zM340 1868l192 14l285 -336h-121zM446 506h617l-309 698z" />
<glyph unicode="&#xc1;" d="M39 0l668 1444h96l670 -1444h-185l-162 362h-743l-160 -362h-184zM446 506h617l-309 698zM700 1546l285 336l191 -14l-357 -322h-119z" />
<glyph unicode="&#xc2;" d="M39 0l668 1444h96l670 -1444h-185l-162 362h-743l-160 -362h-184zM406 1546l292 293h111l295 -293h-137l-213 199l-213 -199h-135zM446 506h617l-309 698z" />
<glyph unicode="&#xc3;" d="M39 0l668 1444h96l670 -1444h-185l-162 362h-743l-160 -362h-184zM362 1550q10 125 71 193.5t157 68.5q53 0 116 -23t121 -46t97 -23q47 0 84.5 38.5t52.5 107.5l90 -13q-12 -122 -72 -191t-143 -69q-64 0 -177.5 47.5t-154.5 47.5q-114 0 -151 -148zM446 506h617 l-309 698z" />
<glyph unicode="&#xc4;" d="M39 0l668 1444h96l670 -1444h-185l-162 362h-743l-160 -362h-184zM446 506h617l-309 698zM485 1661q0 38 27.5 65t65.5 27t65 -27t27 -65t-27 -65t-65 -27t-65.5 27t-27.5 65zM838 1661q0 38 27 65t67 27q37 0 64.5 -27t27.5 -65t-27.5 -65t-64.5 -27q-40 0 -67 27 t-27 65z" />
<glyph unicode="&#xc5;" d="M39 0l643 1393q-56 22 -91.5 72.5t-35.5 111.5q0 79 59.5 138t139.5 59t139 -59t59 -138q0 -60 -36 -110t-91 -72l648 -1395h-185l-162 362h-743l-160 -362h-184zM446 506h617l-309 698zM637 1577q0 -48 34 -81.5t83 -33.5q48 0 82 34t34 83q0 46 -34.5 80.5t-81.5 34.5 t-82 -35t-35 -82z" />
<glyph unicode="&#xc6;" horiz-adv-x="2064" d="M25 0l755 1444h1141v-150h-831v-520h704v-147h-704v-477h874v-150h-1044v362h-523l-186 -362h-186zM465 506h455v776h-54z" />
<glyph unicode="&#xc7;" horiz-adv-x="1548" d="M106 721q0 149 60 284.5t162 234.5t242.5 157.5t295.5 58.5q175 0 329.5 -73.5t260.5 -202.5l-135 -113q-80 104 -199.5 164.5t-255.5 60.5q-158 0 -290.5 -74t-210.5 -205.5t-78 -291.5q0 -159 78 -290t210.5 -205t290.5 -74q137 0 256 60t199 163l135 -113 q-98 -118 -237.5 -190t-298.5 -82l-52 -105q41 0 70 -32t29 -86q-5 -61 -57.5 -105.5t-157.5 -44.5q-31 0 -65 3t-53 6l-18 3l2 70q42 -10 95 -10q64 0 99.5 25.5t35.5 62.5q0 67 -143 67l102 146q-193 14 -354 115t-254 264t-93 352z" />
<glyph unicode="&#xc8;" horiz-adv-x="1318" d="M174 0v1444h1002v-150h-832v-520h705v-147h-705v-477h875v-150h-1045zM272 1868l193 14l285 -336h-121z" />
<glyph unicode="&#xc9;" horiz-adv-x="1318" d="M174 0v1444h1002v-150h-832v-520h705v-147h-705v-477h875v-150h-1045zM629 1546l284 336l191 -14l-356 -322h-119z" />
<glyph unicode="&#xca;" horiz-adv-x="1318" d="M174 0v1444h1002v-150h-832v-520h705v-147h-705v-477h875v-150h-1045zM336 1546l293 293h110l295 -293h-137l-213 199l-213 -199h-135z" />
<glyph unicode="&#xcb;" horiz-adv-x="1318" d="M174 0v1444h1002v-150h-832v-520h705v-147h-705v-477h875v-150h-1045zM416 1661q0 38 27 65t65 27t65 -27t27 -65t-27 -65t-65 -27t-65 27t-27 65zM768 1661q0 38 27 65t67 27q37 0 64.5 -27t27.5 -65t-27.5 -65t-64.5 -27q-40 0 -67 27t-27 65z" />
<glyph unicode="&#xcc;" horiz-adv-x="530" d="M-147 1894l192 15l285 -336h-121zM176 0v1444h178v-1444h-178z" />
<glyph unicode="&#xcd;" horiz-adv-x="530" d="M176 0v1444h178v-1444h-178zM215 1573l285 336l190 -15l-356 -321h-119z" />
<glyph unicode="&#xce;" horiz-adv-x="530" d="M-82 1573l293 293h111l294 -293h-137l-213 199l-213 -199h-135zM176 0v1444h178v-1444h-178z" />
<glyph unicode="&#xcf;" horiz-adv-x="530" d="M0 1688q0 38 27 65t65 27t65 -27t27 -65t-27 -65.5t-65 -27.5t-65 27.5t-27 65.5zM176 0v1444h178v-1444h-178zM352 1688q0 38 27 65t67 27q37 0 65 -27t28 -65t-28 -65.5t-65 -27.5q-40 0 -67 27.5t-27 65.5z" />
<glyph unicode="&#xd0;" horiz-adv-x="1568" d="M33 651v142h200v651h502q197 0 364.5 -97t265 -263.5t97.5 -362.5q0 -189 -90 -355t-247.5 -266t-342.5 -100h-549v651h-200zM403 158h365q139 0 259.5 78t190.5 208t70 277q0 154 -74 284t-201.5 205.5t-277.5 75.5h-332v-493h373v-142h-373v-493z" />
<glyph unicode="&#xd1;" horiz-adv-x="1583" d="M174 0v1444h92l969 -1114v1114h174v-1444h-92l-967 1114v-1114h-176zM393 1550q10 125 71 193.5t157 68.5q53 0 116 -23t120.5 -46t96.5 -23q47 0 85 38.5t53 107.5l90 -13q-12 -122 -72 -191t-143 -69q-64 0 -177.5 47.5t-154.5 47.5q-115 0 -152 -148z" />
<glyph unicode="&#xd2;" horiz-adv-x="1740" d="M106 721q0 148 60.5 284t162.5 234t243 156.5t296 58.5q156 0 297.5 -58.5t244 -156.5t162.5 -233.5t60 -284.5t-60 -284.5t-162.5 -233.5t-244 -156.5t-297.5 -58.5q-155 0 -296 58.5t-243 156.5t-162.5 234t-60.5 284zM285 721q0 -155 78 -286.5t212.5 -208 t292.5 -76.5q159 0 293.5 76.5t212.5 208t78 286.5t-78 286.5t-212.5 208t-293.5 76.5q-158 0 -292.5 -76.5t-212.5 -208t-78 -286.5zM444 1868l193 14l285 -336h-121z" />
<glyph unicode="&#xd3;" horiz-adv-x="1740" d="M106 721q0 148 60.5 284t162.5 234t243 156.5t296 58.5q156 0 297.5 -58.5t244 -156.5t162.5 -233.5t60 -284.5t-60 -284.5t-162.5 -233.5t-244 -156.5t-297.5 -58.5q-155 0 -296 58.5t-243 156.5t-162.5 234t-60.5 284zM285 721q0 -155 78 -286.5t212.5 -208 t292.5 -76.5q159 0 293.5 76.5t212.5 208t78 286.5t-78 286.5t-212.5 208t-293.5 76.5q-158 0 -292.5 -76.5t-212.5 -208t-78 -286.5zM799 1546l284 336l191 -14l-356 -322h-119z" />
<glyph unicode="&#xd4;" horiz-adv-x="1740" d="M106 721q0 148 60.5 284t162.5 234t243 156.5t296 58.5q156 0 297.5 -58.5t244 -156.5t162.5 -233.5t60 -284.5t-60 -284.5t-162.5 -233.5t-244 -156.5t-297.5 -58.5q-155 0 -296 58.5t-243 156.5t-162.5 234t-60.5 284zM285 721q0 -155 78 -286.5t212.5 -208 t292.5 -76.5q159 0 293.5 76.5t212.5 208t78 286.5t-78 286.5t-212.5 208t-293.5 76.5q-158 0 -292.5 -76.5t-212.5 -208t-78 -286.5zM510 1546l293 293h110l295 -293h-137l-213 199l-213 -199h-135z" />
<glyph unicode="&#xd5;" horiz-adv-x="1740" d="M106 721q0 148 60.5 284t162.5 234t243 156.5t296 58.5q156 0 297.5 -58.5t244 -156.5t162.5 -233.5t60 -284.5t-60 -284.5t-162.5 -233.5t-244 -156.5t-297.5 -58.5q-155 0 -296 58.5t-243 156.5t-162.5 234t-60.5 284zM285 721q0 -155 78 -286.5t212.5 -208 t292.5 -76.5q159 0 293.5 76.5t212.5 208t78 286.5t-78 286.5t-212.5 208t-293.5 76.5q-158 0 -292.5 -76.5t-212.5 -208t-78 -286.5zM469 1550q10 125 70.5 193.5t156.5 68.5q53 0 116 -23t121 -46t97 -23q47 0 84.5 38.5t52.5 107.5l90 -13q-12 -122 -72 -191t-143 -69 q-51 0 -115 23.5t-121.5 47.5t-94.5 24q-115 0 -152 -148z" />
<glyph unicode="&#xd6;" horiz-adv-x="1740" d="M106 721q0 148 60.5 284t162.5 234t243 156.5t296 58.5q156 0 297.5 -58.5t244 -156.5t162.5 -233.5t60 -284.5t-60 -284.5t-162.5 -233.5t-244 -156.5t-297.5 -58.5q-155 0 -296 58.5t-243 156.5t-162.5 234t-60.5 284zM285 721q0 -155 78 -286.5t212.5 -208 t292.5 -76.5q159 0 293.5 76.5t212.5 208t78 286.5t-78 286.5t-212.5 208t-293.5 76.5q-158 0 -292.5 -76.5t-212.5 -208t-78 -286.5zM596 1661q0 38 27 65t65 27t65 -27t27 -65t-27 -65t-65 -27t-65 27t-27 65zM948 1661q0 38 27 65t67 27q37 0 65 -27t28 -65t-28 -65 t-65 -27q-40 0 -67 27t-27 65z" />
<glyph unicode="&#xd7;" horiz-adv-x="1189" d="M121 258l391 389l-391 389l100 103l391 -394l392 394l100 -101l-391 -391l389 -389l-98 -102l-392 391l-389 -389z" />
<glyph unicode="&#xd8;" horiz-adv-x="1740" d="M106 721q0 148 60.5 284t162.5 234t243 156.5t296 58.5q248 0 445 -139l110 129h154l-174 -201q107 -103 168 -237.5t61 -284.5q0 -149 -60 -284.5t-162.5 -233.5t-244 -156.5t-297.5 -58.5q-239 0 -434 133l-104 -121h-152l164 190q-111 102 -173.5 239.5t-62.5 291.5z M285 721q0 -114 46 -216t126 -179l745 860q-147 106 -334 106q-158 0 -292.5 -76.5t-212.5 -208t-78 -286.5zM545 250q146 -100 323 -100q159 0 293.5 76.5t212.5 208t78 286.5q0 111 -44 211.5t-122 175.5z" />
<glyph unicode="&#xd9;" horiz-adv-x="1546" d="M168 580v864h172v-828q0 -218 111.5 -343.5t320.5 -125.5q210 0 324 126t114 343v828h170v-864q0 -124 -40 -231t-114.5 -188t-191.5 -127t-262 -46q-144 0 -260 46t-190.5 126.5t-114 187.5t-39.5 232zM365 1868l192 14l285 -336h-121z" />
<glyph unicode="&#xda;" horiz-adv-x="1546" d="M168 580v864h172v-828q0 -218 111.5 -343.5t320.5 -125.5q210 0 324 126t114 343v828h170v-864q0 -124 -40 -231t-114.5 -188t-191.5 -127t-262 -46q-144 0 -260 46t-190.5 126.5t-114 187.5t-39.5 232zM721 1546l285 336l190 -14l-356 -322h-119z" />
<glyph unicode="&#xdb;" horiz-adv-x="1546" d="M168 580v864h172v-828q0 -218 111.5 -343.5t320.5 -125.5q210 0 324 126t114 343v828h170v-864q0 -124 -40 -231t-114.5 -188t-191.5 -127t-262 -46q-144 0 -260 46t-190.5 126.5t-114 187.5t-39.5 232zM428 1546l293 293h110l295 -293h-137l-213 199l-213 -199h-135z " />
<glyph unicode="&#xdc;" horiz-adv-x="1546" d="M168 580v864h172v-828q0 -218 111.5 -343.5t320.5 -125.5q210 0 324 126t114 343v828h170v-864q0 -124 -40 -231t-114.5 -188t-191.5 -127t-262 -46q-144 0 -260 46t-190.5 126.5t-114 187.5t-39.5 232zM508 1661q0 38 27 65t65 27t65 -27t27 -65t-27 -65t-65 -27t-65 27 t-27 65zM860 1661q0 38 27 65t67 27q37 0 65 -27t28 -65t-28 -65t-65 -27q-40 0 -67 27t-27 65z" />
<glyph unicode="&#xdd;" horiz-adv-x="1374" d="M35 1444h201l452 -766l451 766h202l-565 -948v-496h-176v496zM637 1546l285 336l190 -14l-356 -322h-119z" />
<glyph unicode="&#xde;" horiz-adv-x="1351" d="M174 0v1444h174v-213h395q134 0 237 -37t166.5 -103t95.5 -153.5t32 -192.5q0 -129 -42 -227t-118.5 -158t-179 -90t-229.5 -30h-357v-240h-174zM348 385h352q185 0 291.5 89t106.5 269q0 153 -89.5 246.5t-275.5 93.5h-385v-698z" />
<glyph unicode="&#xdf;" horiz-adv-x="1327" d="M156 -350v1378q0 121 37 221.5t100.5 167t148.5 103t181 36.5q210 0 340.5 -107t130.5 -300q0 -101 -49 -177.5t-127 -111.5q100 -24 173.5 -87.5t107.5 -142.5t34 -163q0 -152 -69 -262t-182.5 -163.5t-256.5 -53.5q-108 0 -190 26l12 144q74 -23 158 -23 q156 0 258 86.5t102 245.5q0 58 -22 112.5t-64 99t-110 72t-152 27.5h-47v133h30q99 3 165.5 71t66.5 173q0 122 -85.5 191t-221.5 69q-133 0 -216 -100t-83 -260v-1405h-170z" />
<glyph unicode="&#xe0;" horiz-adv-x="1370" d="M96 559q0 113 41.5 216.5t114 181.5t179 124.5t228.5 46.5q108 0 209.5 -32.5t175.5 -89.5v102h170v-1108h-170v111q-162 -123 -385 -123q-122 0 -228.5 46.5t-179 124.5t-114 182t-41.5 218zM260 559q0 -113 55 -209t153.5 -153.5t217.5 -57.5q219 0 358 129v576 q-139 133 -358 133q-182 0 -304 -122.5t-122 -295.5zM274 1579l193 14l285 -336h-121z" />
<glyph unicode="&#xe1;" horiz-adv-x="1370" d="M96 559q0 113 41.5 216.5t114 181.5t179 124.5t228.5 46.5q108 0 209.5 -32.5t175.5 -89.5v102h170v-1108h-170v111q-162 -123 -385 -123q-122 0 -228.5 46.5t-179 124.5t-114 182t-41.5 218zM260 559q0 -113 55 -209t153.5 -153.5t217.5 -57.5q219 0 358 129v576 q-139 133 -358 133q-182 0 -304 -122.5t-122 -295.5zM631 1257l284 336l191 -14l-356 -322h-119z" />
<glyph unicode="&#xe2;" horiz-adv-x="1370" d="M96 559q0 113 41.5 216.5t114 181.5t179 124.5t228.5 46.5q108 0 209.5 -32.5t175.5 -89.5v102h170v-1108h-170v111q-162 -123 -385 -123q-122 0 -228.5 46.5t-179 124.5t-114 182t-41.5 218zM260 559q0 -113 55 -209t153.5 -153.5t217.5 -57.5q219 0 358 129v576 q-139 133 -358 133q-182 0 -304 -122.5t-122 -295.5zM350 1257l293 293h111l295 -293h-138l-213 199l-213 -199h-135z" />
<glyph unicode="&#xe3;" horiz-adv-x="1370" d="M96 559q0 113 41.5 216.5t114 181.5t179 124.5t228.5 46.5q108 0 209.5 -32.5t175.5 -89.5v102h170v-1108h-170v111q-162 -123 -385 -123q-122 0 -228.5 46.5t-179 124.5t-114 182t-41.5 218zM260 559q0 -113 55 -209t153.5 -153.5t217.5 -57.5q219 0 358 129v576 q-139 133 -358 133q-182 0 -304 -122.5t-122 -295.5zM307 1262q10 125 71 193.5t157 68.5q53 0 116 -23t120.5 -46t96.5 -23q47 0 85 38.5t53 106.5l90 -12q-12 -122 -72 -191t-143 -69q-64 0 -177.5 47t-154.5 47q-115 0 -152 -148z" />
<glyph unicode="&#xe4;" horiz-adv-x="1370" d="M96 559q0 113 41.5 216.5t114 181.5t179 124.5t228.5 46.5q108 0 209.5 -32.5t175.5 -89.5v102h170v-1108h-170v111q-162 -123 -385 -123q-122 0 -228.5 46.5t-179 124.5t-114 182t-41.5 218zM260 559q0 -113 55 -209t153.5 -153.5t217.5 -57.5q219 0 358 129v576 q-139 133 -358 133q-182 0 -304 -122.5t-122 -295.5zM430 1372q0 38 27 65t65 27t65 -27t27 -65t-27 -65t-65 -27t-65 27t-27 65zM782 1372q0 38 27.5 65t67.5 27q37 0 64.5 -27t27.5 -65t-27.5 -65t-64.5 -27q-40 0 -67.5 27t-27.5 65z" />
<glyph unicode="&#xe5;" horiz-adv-x="1370" d="M96 559q0 113 41.5 216.5t114 181.5t179 124.5t228.5 46.5q108 0 209.5 -32.5t175.5 -89.5v102h170v-1108h-170v111q-162 -123 -385 -123q-122 0 -228.5 46.5t-179 124.5t-114 182t-41.5 218zM260 559q0 -113 55 -209t153.5 -153.5t217.5 -57.5q219 0 358 129v576 q-139 133 -358 133q-182 0 -304 -122.5t-122 -295.5zM498 1477q0 79 59 137.5t139 58.5t139.5 -58.5t59.5 -137.5t-59.5 -138t-139.5 -59t-139 59t-59 138zM580 1477q0 -48 33.5 -81.5t82.5 -33.5q48 0 82.5 34t34.5 83q0 46 -35 80t-82 34t-81.5 -34.5t-34.5 -81.5z" />
<glyph unicode="&#xe6;" horiz-adv-x="2293" d="M96 559q0 121 45 227.5t121.5 181t181.5 117.5t222 43q107 0 208.5 -32.5t176.5 -89.5v102h168v-190q76 95 187.5 152.5t242.5 57.5q178 0 305 -79t187.5 -209t60.5 -295q0 -27 -2 -41h-938q21 -160 145.5 -263.5t282.5 -103.5q104 0 196 42t156 120l112 -90 q-76 -101 -199.5 -161t-271.5 -60q-303 0 -464 209v-197h-168v111q-165 -123 -385 -123q-117 0 -222 43t-181.5 118t-121.5 182t-45 228zM260 559q0 -179 125 -300.5t307 -121.5q215 0 359 131v576q-67 64 -160 99.5t-199 35.5q-181 0 -306.5 -122.5t-125.5 -297.5z M1264 637h768q-13 158 -108.5 255t-262.5 97q-156 0 -266 -100t-131 -252z" />
<glyph unicode="&#xe7;" horiz-adv-x="1193" d="M90 557q0 116 48 221.5t128.5 182t192.5 122t235 45.5q125 0 233 -53t183 -147l-113 -103q-55 71 -134 111.5t-169 40.5q-181 0 -308.5 -123t-127.5 -297q0 -172 127.5 -295t308.5 -123q89 0 168.5 42t134.5 114l111 -102q-68 -87 -162 -140t-201 -63l-51 -105 q41 0 70 -32t29 -86q-5 -61 -57.5 -105.5t-157.5 -44.5q-31 0 -65 3t-53 6l-18 3l2 70q42 -10 95 -10q64 0 99.5 25.5t35.5 62.5q0 67 -144 67l105 148q-152 13 -276.5 91.5t-196.5 203.5t-72 270z" />
<glyph unicode="&#xe8;" horiz-adv-x="1284" d="M92 557q0 157 70.5 287t200.5 207t292 77q246 0 391.5 -160.5t145.5 -418.5l-2 -45h-928q21 -160 142.5 -263.5t279.5 -103.5q104 0 196 42t156 120l113 -90q-78 -103 -207.5 -162t-286.5 -59q-162 0 -292 77t-200.5 206.5t-70.5 285.5zM236 1579l192 14l285 -336h-121z M264 637h762q-13 158 -108.5 255t-262.5 97q-155 0 -262.5 -100t-128.5 -252z" />
<glyph unicode="&#xe9;" horiz-adv-x="1284" d="M92 557q0 157 70.5 287t200.5 207t292 77q246 0 391.5 -160.5t145.5 -418.5l-2 -45h-928q21 -160 142.5 -263.5t279.5 -103.5q104 0 196 42t156 120l113 -90q-78 -103 -207.5 -162t-286.5 -59q-162 0 -292 77t-200.5 206.5t-70.5 285.5zM264 637h762q-13 158 -108.5 255 t-262.5 97q-155 0 -262.5 -100t-128.5 -252zM592 1257l285 336l190 -14l-356 -322h-119z" />
<glyph unicode="&#xea;" horiz-adv-x="1284" d="M92 557q0 157 70.5 287t200.5 207t292 77q246 0 391.5 -160.5t145.5 -418.5l-2 -45h-928q21 -160 142.5 -263.5t279.5 -103.5q104 0 196 42t156 120l113 -90q-78 -103 -207.5 -162t-286.5 -59q-162 0 -292 77t-200.5 206.5t-70.5 285.5zM264 637h762q-13 158 -108.5 255 t-262.5 97q-155 0 -262.5 -100t-128.5 -252zM299 1257l293 293h110l295 -293h-137l-213 199l-213 -199h-135z" />
<glyph unicode="&#xeb;" horiz-adv-x="1284" d="M92 557q0 157 70.5 287t200.5 207t292 77q246 0 391.5 -160.5t145.5 -418.5l-2 -45h-928q21 -160 142.5 -263.5t279.5 -103.5q104 0 196 42t156 120l113 -90q-78 -103 -207.5 -162t-286.5 -59q-162 0 -292 77t-200.5 206.5t-70.5 285.5zM264 637h762q-13 158 -108.5 255 t-262.5 97q-155 0 -262.5 -100t-128.5 -252zM379 1372q0 38 27 65t65 27t65 -27t27 -65t-27 -65t-65 -27t-65 27t-27 65zM731 1372q0 38 27 65t67 27q37 0 65 -27t28 -65t-28 -65t-65 -27q-40 0 -67 27t-27 65z" />
<glyph unicode="&#xec;" horiz-adv-x="491" d="M-166 1559l193 14l284 -336h-121zM160 0v1108h170v-1108h-170z" />
<glyph unicode="&#xed;" horiz-adv-x="491" d="M160 0v1108h170v-1108h-170zM195 1237l284 336l191 -14l-357 -322h-118z" />
<glyph unicode="&#xee;" horiz-adv-x="491" d="M-102 1237l292 293h111l295 -293h-137l-213 199l-213 -199h-135zM160 0v1108h170v-1108h-170z" />
<glyph unicode="&#xef;" horiz-adv-x="491" d="M-23 1352q0 38 27.5 65t65.5 27t65 -27t27 -65t-27 -65t-65 -27t-65.5 27t-27.5 65zM160 0v1108h170v-1108h-170zM330 1352q0 38 27 65t67 27q37 0 64.5 -27t27.5 -65t-27.5 -65t-64.5 -27q-40 0 -67 27t-27 65z" />
<glyph unicode="&#xf0;" horiz-adv-x="1349" d="M61 524q0 98 42 189t115.5 160t180.5 110t230 41q205 0 334 -104q-48 70 -102 135t-82 94t-85 86l-336 -117l-67 90l332 117l-209 219h192l166 -168l279 97l63 -91l-268 -94q91 -99 160.5 -186t132 -187.5t96 -203t33.5 -199.5q0 -141 -81.5 -262t-220.5 -191.5 t-300 -70.5q-164 0 -303.5 72.5t-220.5 196t-81 267.5zM229 524q0 -160 128 -275.5t309 -115.5q180 0 307 116.5t127 282.5q0 109 -64 190.5t-161 121t-209 39.5q-185 0 -311 -101t-126 -258z" />
<glyph unicode="&#xf1;" horiz-adv-x="1306" d="M156 0v1108h170v-107q142 127 370 127q227 0 351 -124.5t124 -374.5v-629h-170v629q0 168 -89.5 258t-241.5 90q-203 0 -344 -125v-852h-170zM262 1241q10 125 70.5 193.5t156.5 68.5q53 0 116 -23t121 -46t97 -23q47 0 85 38.5t53 106.5l90 -12q-12 -122 -72 -191 t-143 -69q-64 0 -177.5 47t-154.5 47q-115 0 -152 -147z" />
<glyph unicode="&#xf2;" horiz-adv-x="1386" d="M88 557q0 116 48 221.5t128.5 182t192.5 122t235 45.5q122 0 233.5 -45.5t192.5 -122t128.5 -182t47.5 -221.5q0 -154 -80.5 -285t-219.5 -207.5t-302 -76.5q-123 0 -235 45t-192.5 121.5t-128.5 182t-48 220.5zM256 557q0 -172 127.5 -295t308.5 -123q180 0 307 123 t127 295q0 173 -127 296.5t-307 123.5q-181 0 -308.5 -123t-127.5 -297zM270 1559l193 14l285 -336h-121z" />
<glyph unicode="&#xf3;" horiz-adv-x="1386" d="M88 557q0 116 48 221.5t128.5 182t192.5 122t235 45.5q122 0 233.5 -45.5t192.5 -122t128.5 -182t47.5 -221.5q0 -154 -80.5 -285t-219.5 -207.5t-302 -76.5q-123 0 -235 45t-192.5 121.5t-128.5 182t-48 220.5zM256 557q0 -172 127.5 -295t308.5 -123q180 0 307 123 t127 295q0 173 -127 296.5t-307 123.5q-181 0 -308.5 -123t-127.5 -297zM627 1237l284 336l191 -14l-357 -322h-118z" />
<glyph unicode="&#xf4;" horiz-adv-x="1386" d="M88 557q0 116 48 221.5t128.5 182t192.5 122t235 45.5q122 0 233.5 -45.5t192.5 -122t128.5 -182t47.5 -221.5q0 -154 -80.5 -285t-219.5 -207.5t-302 -76.5q-123 0 -235 45t-192.5 121.5t-128.5 182t-48 220.5zM256 557q0 -172 127.5 -295t308.5 -123q180 0 307 123 t127 295q0 173 -127 296.5t-307 123.5q-181 0 -308.5 -123t-127.5 -297zM338 1237l293 293h110l295 -293h-137l-213 199l-213 -199h-135z" />
<glyph unicode="&#xf5;" horiz-adv-x="1386" d="M88 557q0 116 48 221.5t128.5 182t192.5 122t235 45.5q122 0 233.5 -45.5t192.5 -122t128.5 -182t47.5 -221.5q0 -154 -80.5 -285t-219.5 -207.5t-302 -76.5q-123 0 -235 45t-192.5 121.5t-128.5 182t-48 220.5zM256 557q0 -172 127.5 -295t308.5 -123q180 0 307 123 t127 295q0 173 -127 296.5t-307 123.5q-181 0 -308.5 -123t-127.5 -297zM295 1241q10 125 70.5 193.5t156.5 68.5q53 0 116 -23t121 -46t97 -23q47 0 84.5 38t52.5 107l90 -12q-12 -122 -72 -191t-143 -69q-64 0 -177 47t-154 47q-115 0 -152 -147z" />
<glyph unicode="&#xf6;" horiz-adv-x="1386" d="M88 557q0 116 48 221.5t128.5 182t192.5 122t235 45.5q122 0 233.5 -45.5t192.5 -122t128.5 -182t47.5 -221.5q0 -154 -80.5 -285t-219.5 -207.5t-302 -76.5q-123 0 -235 45t-192.5 121.5t-128.5 182t-48 220.5zM256 557q0 -172 127.5 -295t308.5 -123q180 0 307 123 t127 295q0 173 -127 296.5t-307 123.5q-181 0 -308.5 -123t-127.5 -297zM418 1352q0 38 27 65t65 27t65 -27t27 -65t-27 -65t-65 -27t-65 27t-27 65zM770 1352q0 38 27 65t67 27q37 0 64.5 -27t27.5 -65t-27.5 -65t-64.5 -27q-40 0 -67 27t-27 65z" />
<glyph unicode="&#xf7;" horiz-adv-x="1077" d="M94 610v142h893v-142h-893zM430 170q0 41 29.5 69.5t70.5 28.5t70 -28.5t29 -69.5t-29 -69.5t-70 -28.5t-70.5 28.5t-29.5 69.5zM430 1155q0 41 29.5 69.5t70.5 28.5t70 -28.5t29 -69.5q0 -40 -29 -69t-70 -29t-70.5 29t-29.5 69z" />
<glyph unicode="&#xf8;" horiz-adv-x="1386" d="M88 557q0 116 48 221.5t128.5 182t192.5 122t235 45.5q192 0 346 -104l82 94h135l-141 -157q86 -77 133 -182t47 -222q0 -154 -80.5 -285t-219.5 -207.5t-302 -76.5q-188 0 -346 104l-84 -92h-133l137 156q-85 78 -131.5 181t-46.5 220zM256 557q0 -163 123 -276l551 622 q-107 74 -238 74q-181 0 -308.5 -123t-127.5 -297zM453 213q104 -74 239 -74q180 0 307 123t127 295q0 164 -125 279z" />
<glyph unicode="&#xf9;" horiz-adv-x="1320" d="M137 487v621h168v-621q0 -168 91 -258t243 -90q212 0 356 125v844h170v-1108h-170v115q-149 -127 -383 -127q-227 0 -351 124.5t-124 374.5zM248 1559l192 14l285 -336h-121z" />
<glyph unicode="&#xfa;" horiz-adv-x="1320" d="M137 487v621h168v-621q0 -168 91 -258t243 -90q212 0 356 125v844h170v-1108h-170v115q-149 -127 -383 -127q-227 0 -351 124.5t-124 374.5zM604 1237l285 336l190 -14l-356 -322h-119z" />
<glyph unicode="&#xfb;" horiz-adv-x="1320" d="M137 487v621h168v-621q0 -168 91 -258t243 -90q212 0 356 125v844h170v-1108h-170v115q-149 -127 -383 -127q-227 0 -351 124.5t-124 374.5zM301 1237l293 293h111l294 -293h-137l-213 199l-213 -199h-135z" />
<glyph unicode="&#xfc;" horiz-adv-x="1320" d="M137 487v621h168v-621q0 -168 91 -258t243 -90q212 0 356 125v844h170v-1108h-170v115q-149 -127 -383 -127q-227 0 -351 124.5t-124 374.5zM379 1352q0 38 27 65t65 27t65 -27t27 -65t-27 -65t-65 -27t-65 27t-27 65zM731 1352q0 38 27 65t67 27q37 0 65 -27t28 -65 t-28 -65t-65 -27q-40 0 -67 27t-27 65z" />
<glyph unicode="&#xfd;" horiz-adv-x="1255" d="M55 1108h181l391 -907h37l356 907h176l-465 -1167q-34 -84 -96 -148t-140 -101t-161 -55t-170 -18q-55 0 -80 2l18 129h27q162 0 279 60t167 190h-45zM584 1237l284 336l191 -14l-357 -322h-118z" />
<glyph unicode="&#xfe;" horiz-adv-x="1376" d="M156 -358v1902h170v-536q72 56 174 88t209 32q156 0 286.5 -72.5t207.5 -203.5t77 -293t-77 -293.5t-207.5 -204.5t-286.5 -73q-222 0 -383 116v-462h-170zM326 268q135 -129 358 -129q181 0 303.5 120.5t122.5 299.5q0 175 -123 296.5t-303 121.5q-108 0 -200.5 -34.5 t-157.5 -98.5v-576z" />
<glyph unicode="&#xff;" horiz-adv-x="1255" d="M55 1108h181l391 -907h37l356 907h176l-465 -1167q-34 -84 -96 -148t-140 -101t-161 -55t-170 -18q-55 0 -80 2l18 129h27q162 0 279 60t167 190h-45zM371 1352q0 38 27 65t65 27t65 -27t27 -65t-27 -65t-65 -27t-65 27t-27 65zM723 1352q0 38 27 65t67 27q37 0 64.5 -27 t27.5 -65t-27.5 -65t-64.5 -27q-40 0 -67 27t-27 65z" />
<glyph unicode="&#x152;" horiz-adv-x="2113" d="M106 721q0 197 100 363.5t271.5 263t374.5 96.5h1120v-150h-831v-520h704v-147h-704v-477h874v-150h-1179q-148 0 -283.5 57.5t-233 154.5t-155.5 230t-58 279zM281 721q0 -137 46 -247.5t125 -180t181 -106.5t217 -37h119v1144h-119q-114 0 -216.5 -39.5t-181.5 -111 t-125 -181t-46 -241.5z" />
<glyph unicode="&#x153;" horiz-adv-x="2316" d="M90 557q0 116 47 221.5t127 182.5t191.5 122t234.5 45q167 0 301.5 -76t204.5 -208q71 131 199.5 207.5t292.5 76.5q246 0 391 -160.5t145 -418.5l-2 -45h-928q21 -160 142.5 -263.5t279.5 -103.5q104 0 196 42t156 120l113 -90q-78 -103 -207 -162t-286 -59 q-162 0 -291.5 76.5t-200.5 205.5q-70 -128 -206 -205t-302 -77q-163 0 -301 76.5t-217.5 207.5t-79.5 285zM258 557q0 -174 126.5 -297t307.5 -123q113 0 210.5 56.5t155.5 153.5t58 210q0 173 -125.5 296.5t-300.5 123.5q-182 0 -307 -122.5t-125 -297.5zM1296 637h762 q-13 158 -108 255t-262 97q-155 0 -263 -100t-129 -252z" />
<glyph unicode="&#x178;" horiz-adv-x="1374" d="M35 1444h201l452 -766l451 766h202l-565 -948v-496h-176v496zM420 1661q0 38 27 65t65 27t65 -27t27 -65t-27 -65t-65 -27t-65 27t-27 65zM772 1661q0 38 27 65t67 27q37 0 64.5 -27t27.5 -65t-27.5 -65t-64.5 -27q-40 0 -67 27t-27 65z" />
<glyph unicode="&#x2c6;" horiz-adv-x="1024" d="M160 1546l293 293h110l295 -293h-137l-213 199l-213 -199h-135z" />
<glyph unicode="&#x2dc;" horiz-adv-x="1024" d="M113 1550q10 125 70.5 193.5t156.5 68.5q53 0 116 -23t121 -46t97 -23q47 0 84.5 38.5t52.5 107.5l90 -13q-12 -122 -72 -191t-143 -69q-64 0 -177.5 47.5t-154.5 47.5q-114 0 -151 -148z" />
<glyph unicode="&#x2000;" horiz-adv-x="954" />
<glyph unicode="&#x2001;" horiz-adv-x="1909" />
<glyph unicode="&#x2002;" horiz-adv-x="954" />
<glyph unicode="&#x2003;" horiz-adv-x="1909" />
<glyph unicode="&#x2004;" horiz-adv-x="636" />
<glyph unicode="&#x2005;" horiz-adv-x="477" />
<glyph unicode="&#x2006;" horiz-adv-x="318" />
<glyph unicode="&#x2007;" horiz-adv-x="318" />
<glyph unicode="&#x2008;" horiz-adv-x="238" />
<glyph unicode="&#x2009;" horiz-adv-x="381" />
<glyph unicode="&#x200a;" horiz-adv-x="106" />
<glyph unicode="&#x2010;" horiz-adv-x="835" d="M94 608v144h647v-144h-647z" />
<glyph unicode="&#x2011;" horiz-adv-x="835" d="M94 608v144h647v-144h-647z" />
<glyph unicode="&#x2012;" horiz-adv-x="835" d="M94 608v144h647v-144h-647z" />
<glyph unicode="&#x2013;" horiz-adv-x="1081" d="M94 608v144h891v-144h-891z" />
<glyph unicode="&#x2014;" horiz-adv-x="1839" d="M94 608v144h1647v-144h-1647z" />
<glyph unicode="&#x2018;" horiz-adv-x="434" d="M106 1174q0 50 14 96t43.5 86t82.5 64t123 24l24 -72q-164 -3 -170 -141q37 -5 61.5 -33.5t24.5 -67.5q0 -41 -29 -70.5t-69 -29.5q-52 0 -78.5 38.5t-26.5 105.5z" />
<glyph unicode="&#x2019;" horiz-adv-x="411" d="M51 1102q165 7 170 141q-37 6 -62.5 34t-25.5 66q0 42 29.5 71.5t68.5 29.5q54 0 80.5 -37.5t26.5 -103.5q0 -51 -14.5 -97.5t-44 -87t-82 -64.5t-121.5 -24z" />
<glyph unicode="&#x201a;" horiz-adv-x="442" d="M27 -141q166 3 172 141q-37 5 -62.5 33t-25.5 67q0 41 29.5 71t68.5 30q52 0 79 -38.5t27 -105.5q0 -50 -14.5 -96t-44 -86t-82 -64t-121.5 -24z" />
<glyph unicode="&#x201c;" horiz-adv-x="788" d="M92 1169q0 51 14.5 97.5t44 87t82.5 64.5t123 24l25 -72q-167 -7 -172 -141q37 -6 62.5 -34.5t25.5 -66.5q0 -42 -29.5 -71t-68.5 -29q-53 0 -80 38t-27 103zM455 1169q0 51 14.5 97.5t44 87t82.5 64.5t123 24l24 -72q-164 -7 -172 -141q38 -6 63 -34.5t25 -66.5 q0 -42 -29.5 -71t-68.5 -29q-52 0 -79 38t-27 103z" />
<glyph unicode="&#x201d;" horiz-adv-x="778" d="M53 1102q164 7 172 141q-38 6 -63 34t-25 66q0 42 30 71.5t69 29.5q52 0 79 -38t27 -103q0 -51 -14.5 -97.5t-44 -87t-82.5 -64.5t-123 -24zM416 1102q167 7 172 141q-37 6 -62.5 34t-25.5 66q0 42 29.5 71.5t68.5 29.5q53 0 80 -38t27 -103q0 -51 -14.5 -97.5t-44.5 -87 t-83 -64.5t-123 -24z" />
<glyph unicode="&#x201e;" horiz-adv-x="772" d="M33 -141q164 3 170 141q-37 5 -61.5 33t-24.5 67q0 41 29 71t69 30q52 0 78 -38.5t26 -105.5q0 -50 -14 -96t-43.5 -86t-82 -64t-122.5 -24zM395 -141q164 3 170 141q-37 5 -61.5 33t-24.5 67q0 41 29.5 71t69.5 30q52 0 78 -38.5t26 -105.5q0 -50 -14 -96t-43.5 -86 t-82 -64t-122.5 -24z" />
<glyph unicode="&#x2022;" horiz-adv-x="839" d="M188 721q0 95 67.5 162t164.5 67q95 0 162 -67t67 -162q0 -97 -67 -164.5t-162 -67.5q-97 0 -164.5 67.5t-67.5 164.5z" />
<glyph unicode="&#x2026;" horiz-adv-x="1234" d="M78 94q0 44 31.5 75.5t74.5 31.5q44 0 75.5 -31.5t31.5 -75.5t-31.5 -75t-75.5 -31q-43 0 -74.5 31t-31.5 75zM502 94q0 44 31.5 75.5t74.5 31.5q44 0 75.5 -31.5t31.5 -75.5t-31.5 -75t-75.5 -31q-43 0 -74.5 31t-31.5 75zM934 94q0 44 31 75.5t75 31.5t75.5 -31.5 t31.5 -75.5t-31.5 -75t-75.5 -31t-75 31t-31 75z" />
<glyph unicode="&#x202f;" horiz-adv-x="381" />
<glyph unicode="&#x2039;" horiz-adv-x="636" d="M66 545l356 526l110 -80l-311 -446l311 -445l-110 -82z" />
<glyph unicode="&#x203a;" horiz-adv-x="606" d="M68 100l311 445l-311 446l110 80l357 -526l-357 -527z" />
<glyph unicode="&#x205f;" horiz-adv-x="477" />
<glyph unicode="&#x20ac;" horiz-adv-x="1441" d="M76 535v92h135q-6 47 -6 92q0 43 6 90h-135v94h149q52 243 232 395t413 152q158 0 296 -71.5t231 -198.5l-123 -103q-159 211 -404 211q-161 0 -288 -108.5t-170 -276.5h536v-94h-561q-6 -47 -6 -90q0 -45 6 -92h561v-92h-536q45 -169 171.5 -277t286.5 -108 q244 0 404 208l123 -100q-93 -127 -231 -198.5t-296 -71.5q-234 0 -412.5 151.5t-232.5 395.5h-149z" />
<glyph unicode="&#x2122;" horiz-adv-x="1423" d="M33 1352v80h555v-80h-230v-559h-94v559h-231zM688 793v639h43l293 -410l295 410h41v-639h-90v434l-246 -346l-246 346v-434h-90z" />
<glyph unicode="&#x25fc;" horiz-adv-x="1105" d="M0 0v1106h1106v-1106h-1106z" />
</font>
</defs>
</svg>
